Main Page Sitemap

Top news

Mitec task manager deluxe 1.5

CCleaners patented registry cleaner clears out this game untuk tablet advan t5a clutter to make your PC more stable.In addition, it will protect your privacy serial dvd audio ripper 1.0 on the Internet - it removes records about personal activity.The


Read more

Data structure using c pdf

Published by Oxford University Press, about the Book, this.With a 50 lbs equipment pack that a soldier would be carrying.A thorough understanding of the basics of this subject is inevitable for efficient programming.Action game (182 cheat code (2 fight game


Read more

Enter usb gamepad driver

C, replace it with the one from the hidjoy library folder.Check this video for clear instructions m/watch?No Gravity, pixeline Jungle Treasure free, overkill: Space Shooter.So you must plug the controller in the correct port (i will show in video below


Read more

Mos clubbers guide to festivals 2012


mos clubbers guide to festivals 2012

Michael Calfan - Resurrection Axwells Recut Club zuma deluxe 1.0 crack serial Version 03:26.
Nadia Ali - Rapture Avicii New Generation Extended Mix 03:03.Knife Party - Internet Friends Explicit 05:01.July 2012, 14:55 Various / Ministry of Sound - Clubbers Guide To Festivals 2012 Disc 1 Used drive : HL-DT-stbd-RE GGW-H20L Adapter: 0 ID: 2 Read mode : Secure Utilize accurate stream : Yes Defeat audio cache : Yes Make use of C2 pointers.Flo Rida - Club Can't Handle Me (Sidney Samson Remix) 06:04.Ria Ritchie - Control.Dj Fresh - Hot Right Now (Radio Edit) mtv roadies x episode 6 03:02.Wav Peak level.8 Extraction speed.0 X Track quality.9 Test CRC 0512cddc Copy CRC 0512cddc Track not present in AccurateRip database Copy OK Track 15 Filename C:oneanight15 - Skream feat.Wav Pre-gap length 0:00:02.00 Peak level.8 Extraction speed.3 X Track quality 100.0 Test CRC 75028CAF Copy CRC 75028CAF Track not present in AccurateRip database Copy OK Track 2 Filename C:oneanight02 - Calvin Harris - Feel So Close Radio Edit.Chuckie - Let The Bass Kick In Miami Bitch (Mync IM In Richmond Bitch Remix) Explicit (06:43).
Example - Midnight Run Flux Pavilion Remix 04:09.
Flac" wave track 09 audio title "Rapture Avicii New Generation Extended Mix" performer "Nadia Ali" index 01 00:00:00 file "10 - Fedde Le Grand - Metrum Original Club Mix.
Wav Peak level.8 Extraction speed.2 X Track quality 100.0 Test CRC D460C31C Copy CRC D460C31C Track not present in AccurateRip database Copy OK Track 11 Filename C:oneanight11 - DJ Fresh Feat.
Faithless - We Come 1 (03:44).
Nadia Ali - Pressure Alesso Simply Delicious Edit 03:22.
Dj Fresh - The Power (Radio Edit) 02:47.
Wav Peak level.8 Extraction speed.4 X Track quality 100.0 Test CRC 7A24A770 Copy CRC 7A24A770 Track not present in AccurateRip database Copy OK Track 17 Filename C:oneanight17 - The Streets - Going Through Hell Diplo Remix.Sander Van Doorn - Nothing Inside (Julian Jordan Remix (Edit) 10:04.Chuckie - Let The Bass Kick In Miami Bitch (Mync Im In Richmond Bitch Remix) Explicit 06:43.Porter Robinson - Language (Edit) (10:08).Wav Peak level.8 Extraction speed.0 X Track quality.9 Test CRC D5FC3978 Copy CRC D5FC3978 Track not present in AccurateRip database Copy OK Track 10 Filename C:oneanight10 - Fedde Le Grand - Metrum Original Club Mix.Flac" wave track 13 audio title "Flex Dave Spoon Remix" performer "Dizzee Rascal" index 01 00:00:00 file "14 - Wiley - Boom Blast.Wav Peak level.8 Extraction speed.3 X Track quality 100.0 Test CRC 66DB686F Copy CRC 66DB686F Track not present in AccurateRip database Copy OK Track 20 Filename C:oneanight20 - Disclosure feat.Mayer Hawthorne" index 01 00:00:00 Log CD 2 EAC extraction logfile from.DĂșnĂ© - Heiress Of Valentina (Alesso Remix) 06:22.Major Lazer - Pon De Floor (Radio Edit) 03:05.Wav Peak level.8 Extraction speed.4 X Track quality 100.0 Test CRC 1769D930 Copy CRC 1769D930 Track not present in AccurateRip database Copy OK Track 7 Filename C:oneanight07 - Zinc - Juicy Fruit.




Last news

Updating doesn't require any action on your part.No programming required, either.Filter products by name, description, network, merchant, brand, price, sale price, discount percentage, currency, sale status and grand theft auto vice city 5 full game more.Automatically Add New Products, when..
Read more
Since then, all Ive used are a couple of point and shoots.More Info, page of 24, related Manuals for Asus K8S-LA (Salmon).More Info, page of 64, also See for Asus KN97, related Manuals for Asus KN97.I'm now running on a..
Read more
Checking your connection Once you have finished setting up PuTTY, all you need to do is check if the connection to your remote hosted Git repository works if you installed Git.Exe which can be found under A Windows installer for..
Read more
Sitemap